M-TechRidge Blog

Download Vikrant Rona (2022) 720p 1080p Blu-ray HDRip BRrip x264




Change Language:
M-TechRidge

Almost half a century ago, a remote village in the middle of a tropical rain forest starts witnessing a series of unexplainable events which they attribute to the supernatural. Vikrant Rona, An eccentric police officer, is assigned to solve the mystery. A mysterious game unfolds where everyone in the village is a potential victim and everyone is a suspect.


Media Info



Format : Matroska

Format version : Version 4

File size : 1.06 GiB

Duration : 2 h 20 min

Overall bit rate mode : Variable

Overall bit rate : 1 077 kb/s

Encoded date : UTC 2022-09-02 10:44:23

Writing application : mkvmerge

Writing library : libebml v1.4.2 + libmatroska v1.6.4


Video

ID : 4

Format : HEVC

Format/Info : High Efficiency Video Coding

Format profile : Main [email protected]@Main

Codec ID : V_MPEGH/ISO/HEVC

Duration : 2 h 20 min

Bit rate : 883 kb/s

Width : 1 280 pixels

Height : 536 pixels

Display aspect ratio : 2.40:1

Frame rate mode : Constant

Frame rate : 25.000 FPS

Color space : YUV

Chroma subsampling : 4:2:0 (Type 0)

Bit depth : 10 bits

Bits/(Pixel*Frame) : 0.051

Stream size : 888 MiB (82%)

Title : themoviesboss

Default : Yes

Forced : No

Color range : Limited

Color primaries : BT.709

Transfer characteristics : BT.709

Matrix coefficients : BT.709


Audio #1

ID : 1

Format : MPEG Audio

Format version : Version 1

Format profile : Layer 3

Format settings : Joint stereo / MS Stereo

Codec ID : A_MPEG/L3

Codec ID/Hint : MP3

Duration : 2 h 20 min

Bit rate mode : Variable

Bit rate : 128 kb/s

Channel(s) : 2 channels

Sampling rate : 44.1 kHz

Frame rate : 38.281 FPS (1152 SPF)

Compression mode : Lossy

Stream size : 128 MiB (12%)

Title : themoviesboss

Writing library : LAME3.98r

Encoding settings : -m j -V 0 -q 3 --abr 128

Language : Hindi

Default : Yes

Forced : No


Audio #2

ID : 2

Format : AAC LC

Format/Info : Advanced Audio Codec Low Complexity

Codec ID : A_AAC-2

Duration : 2 h 20 min

Bit rate : 64.0 kb/s

Channel(s) : 2 channels

Channel layout : L R

Sampling rate : 48.0 kHz

Frame rate : 46.875 FPS (1024 SPF)

Compression mode : Lossy

Stream size : 64.4 MiB (6%)

Title : themoviesboss

Language : Kannada

Default : No

Forced : No


Text

ID : 3

Format : UTF-8

Codec ID : S_TEXT/UTF8

Codec ID/Info : UTF-8 Plain Text

Duration : 2 h 15 min

Bit rate : 48 b/s

Frame rate : 0.236 FPS

Count of elements : 1920

Stream size : 48.4 KiB (0%)

Title : themoviesboss

Language : English

Default : No

Forced : No





Screenshots







M-TechRidge

Watch Trailer:


M-TechRidge


Leave a Comment:

Validation code:


Can't read the image? click here to refresh.