M-TechRidge Blog

Download Thor - Love and Thunder (2022) Dual Audio Hindi Eng 720p 1080p Blu-ray HDRip BRrip x264




Change Language:
M-TechRidge

After his retirement is interrupted by Gorr the God Butcher, a galactic killer who seeks the extinction of the gods, Thor enlists the help of King Valkyrie, Korg, and ex-girlfriend Jane Foster, who now inexplicably wields Mjolnir as the Mighty Thor. Together they embark upon a harrowing cosmic adventure to uncover the mystery of the God Butcher’s vengeance and stop him before it’s too late.

GENERAL INFO

Genre : Action, Adventure, Fantasy

Director : Taika Waititi

Stars : Chris Hemsworth, Natalie Portman, Christian Bale, Tessa Thompson, Taika Waititi

Plot : After his retirement is interrupted by Gorr the God Butcher, a galactic killer who seeks the extinction of the gods, Thor Odinson enlists the help of King Valkyrie, Korg, and ex-girlfriend Jane Foster, who now inexplicably wields Mjolnir as the Relatively Mighty Girl Thor. Together they embark upon a harrowing cosmic adventure to uncover the mystery of the God Butcher’s vengeance and stop him before it’s too late.


Code:

 Video

ID                   : 1

Format                 : HEVC

Format/Info               : High Efficiency Video Coding

Format profile             : Main [email protected]@Main

Codec ID                : V_MPEGH/ISO/HEVC

Duration                : 1 h 59 min

Bit rate                : 924 kb/s

Width                  : 1 280 pixels

Height                 : 532 pixels

Display aspect ratio          : 2.40:1

Frame rate mode             : Constant

Frame rate               : 23.976 (24000/1001) FPS

Color space               : YUV

Chroma subsampling           : 4:2:0

Bit depth                : 10 bits

Bits/(Pixel*Frame)           : 0.057

Stream size               : 793 MiB (71%)

Title                  : Encoded By ~ Immortal

Language                : English

Default                 : Yes

Forced                 : Yes

Color range               : Limited

Color primaries             : BT.709

Transfer characteristics        : BT.709

Matrix coefficients           : BT.709


Audio #1

ID                   : 2

Format                 : E-AC-3

Format/Info               : Enhanced AC-3

Commercial name             : Dolby Digital Plus

Codec ID                : A_EAC3

Duration                : 1 h 58 min

Bit rate mode              : Constant

Bit rate                : 192 kb/s

Channel(s)               : 6 channels

Channel layout             : L R C LFE Ls Rs

Sampling rate              : 48.0 kHz

Frame rate               : 31.250 FPS (1536 SPF)

Compression mode            : Lossy

Delay relative to video         : 1 s 17 ms

Stream size               : 163 MiB (15%)

Title                  : Org DSNP Hindi DDP 5.1 192Kbps ~ Immortal

Language                : Hindi

Service kind              : Complete Main

Default                 : Yes

Forced                 : Yes


Audio #2

ID                   : 3

Format                 : E-AC-3

Format/Info               : Enhanced AC-3

Commercial name             : Dolby Digital Plus

Codec ID                : A_EAC3

Duration                : 1 h 59 min

Bit rate mode              : Constant

Bit rate                : 192 kb/s

Channel(s)               : 6 channels

Channel layout             : L R C LFE Ls Rs

Sampling rate              : 48.0 kHz

Frame rate               : 31.250 FPS (1536 SPF)

Compression mode            : Lossy

Delay relative to video         : -5 ms

Stream size               : 165 MiB (15%)

Title                  : English DDP 5.1 ~ Immortal

Language                : English

Service kind              : Complete Main

Default                 : No

Forced                 : No


Text #1

ID                   : 4

Format                 : UTF-8

Codec ID                : S_TEXT/UTF8

Codec ID/Info              : UTF-8 Plain Text

Duration                : 1 h 58 min

Bit rate                : 68 b/s

Frame rate               : 0.321 FPS

Count of elements            : 2281

Stream size               : 59.7 KiB (0%)

Title                  : English [SDH]

Language                : English

Default                 : No

Forced                 : No


Text #2

ID                   : 5

Format                 : UTF-8

Codec ID                : S_TEXT/UTF8

Codec ID/Info              : UTF-8 Plain Text

Duration                : 1 h 57 min

Bit rate                : 55 b/s

Frame rate               : 0.257 FPS

Count of elements            : 1818

Stream size               : 48.2 KiB (0%)

Title                  : English

Language                : English

Default                 : No

Forced                 : No 







M-TechRidge

Watch Trailer:


M-TechRidge


Leave a Comment:

Validation code:


Can't read the image? click here to refresh.