Guardians of the Galaxy Vol. 2 (2017) Dual Audio (HI-EN)

  • 0
  • 368
Guardians of the Galaxy Vol. 2 (2017) Dual Audio (HI-EN) © Guardians of the Galaxy Vol. 2 (2017) Dual Audio (HI-EN)

Guardians of the Galaxy Vol-2 2017 1080p HD-TS x264-24HD

Source: V- Russian1080p A- FM
All Credit Goes to Original Syncer for syncing this time consuming Audio on russian source.

Format : Matroska
Format version : Version 4 / Version 2
File size : 4.47 GiB
Duration : 2 h 7 min
Overall bit rate mode : Variable
Overall bit rate : 5 008 kb/s
Encoded date : UTC 2017-06-16 19:16:30
Writing application : mkvmerge v9.9.0 ('Pick Up') 64bit
Writing library : libebml v1.3.4 + libmatroska v1.4.5

Video
ID : 1
Format : AVC
Format/Info : Advanced Video Codec
Format profile : High@L4.1
Format settings, CABAC : Yes
Format settings, ReFrames : 5 frames
Codec ID : V_MPEG4/ISO/AVC
Duration : 2 h 7 min
Bit rate mode : Variable
Bit rate : 4 813 kb/s
Maximum bit rate : 5 300 kb/s
Width : 1 920 pixels
Height : 760 pixels
Display aspect ratio : 2.526
Frame rate mode : Constant
Frame rate : 29.970 (30000/1001) FPS
Standard : Component
Color space : YUV
Chroma subsampling : 4:2:0
Bit depth : 8 bits
Scan type : Progressive
Bits/(Pixel*Frame) : 0.110
Stream size : 4.30 GiB (96%)
Default : Yes
Forced : No
Color range : Limited
Color primaries : BT.709
Transfer characteristics : BT.709
Matrix coefficients : BT.709

Audio
ID : 2
Format : MPEG Audio
Format version : Version 1
Format profile : Layer 3
Codec ID : A_MPEG/L3
Codec ID/Hint : MP3
Duration : 2 h 7 min
Bit rate mode : Constant
Bit rate : 192 kb/s
Channel(s) : 2 channels
Sampling rate : 44.1 kHz
Frame rate : 38.281 FPS (1152 spf)
Compression mode : Lossy
Delay relative to video : 1 ms
Stream size : 176 MiB (4%)
Writing library : LAME3.99.5
Default : Yes
Forced : No

Summary : The Guardians must fight to keep their newfound family together as they unravel the mystery of Peter Quill's true parentage.





Prev Post Guardians of the Galaxy (2014) Dual Audio (Hi-EN)
Next Post Transformers (2007) Dual Audio (Hi-En)
Commnets 0
Leave A Comment