M-TechRidge Blog

Download Cuttputlli (2022) 720p 1080p Blu-ray HDRip BRrip x264




Change Language:
M-TechRidge

When a small town gets plunged into the nightmare of serial killings, rookie cop Arjan embarks on a chase for the truth and unravels a gruesome conspiracy.

Cuttputlli (2022) | Hindi


📀 1080p WEBRip | DS4K | HEVC 10Bit | DDP 5.1


🔊 Original Audio: Hindi







Media Information


Code:

General

Unique ID : 197677148075560831531494638911244039562 (0x94B73BDF8EEDF6E5DC39E9411A95758A)

Complete name : Cuttputlli.(2022).Hindi.1080p.DS4K.10bit.DDP.5.1.HEVC-[Musafirboy].mkv

Format : Matroska

Format version : Version 4

File size : 2.25 GiB

Duration : 2 h 14 min

Overall bit rate : 2395 kb/s

Movie name : Cuttputlli.(2022).Hindi.1080p.DS4K.10bit.DDP.5.1.HEVC-[Musafirboy]

Encoded date : UTC 2022-09-02 10:04:05

Writing application : [Musafirboy]

Cover : Yes

Attachments : cover.jpg


Video

Format : HEVC

Format/Info : High Efficiency Video Coding

Format profile : Main [email protected]@Main

Codec ID : V_MPEGH/ISO/HEVC

Duration : 2 h 14 min

Bit rate : 2009 kb/s

Width : 1920 pixels

Height : 800 pixels

Display aspect ratio : 2.40:1

Frame rate mode : Constant

Frame rate : 24.000 FPS

Color space : YUV

Chroma subsampling : 4:2:0

Bit depth : 10 bits

Bits/(Pixel*Frame) : 0.055

Stream size : 1.89 GiB (84%)

Title : [Musafirboy]

Default : Yes

Forced : No

Color range : Limited

Color primaries : BT.709

Transfer characteristics : BT.709

Matrix coefficients : BT.709


Audio

Format : E-AC-3

Format/Info : Enhanced AC-3

Commercial name : Dolby Digital Plus

Codec ID : A_EAC3

Duration : 2 h 14 min

Bit rate mode : Constant

Bit rate : 384 kb/s

Channel(s) : 6 channels

Channel layout : L R C LFE Ls Rs

Sampling rate : 48.0 kHz

Frame rate : 31.250 FPS (1536 SPF)

Compression mode : Lossy

Stream size : 369 MiB (16%)

Language : Hindi

Service kind : Complete Main

Default : Yes

Forced : No


Subtitle

Format : UTF-8

Codec ID : S_TEXT/UTF8

Codec ID/Info : UTF-8 Plain Text

Duration : 2 h 7 min

Bit rate : 55 b/s

Count of elements : 1842

Stream size : 51.4 KiB (0%)

Language : English

Default : Yes

Forced : No


M-TechRidge

Watch Trailer:


M-TechRidge


Leave a Comment:

Validation code:


Can't read the image? click here to refresh.