M-TechRidge Blog

Download Chhello Show (Last Film Show) 720p 1080p Blu-ray HDRip BRrip x264




Change Language:
M-TechRidge

A 9-year-old boy in a remote village in India begins a lifelong love affair with cinema when he bribes his way into a rundown movie palace and spends a Summer watching movies from the projection booth.

IMDB: https://www.imdb.com/title/tt9681686/


Subtitle: English (hardcoded)


Plot: Samay fights heaven and earth to find light. He wants to catch, control, cut and project that light to tell stories. Now to pursue that dream he must leave everything he loves and take a flight to find the light.


Complete name: Last.Film.Show.(2021).1080p.ALL4.WEB-DL.Gujarati.ESub.AAC2.0.x264_GameData.mp4

Format : MPEG-4

Format profile : Base Media

Codec ID : isom (isom/iso2/avc1/mp41)

File size : 1.43 GiB

Duration : 1 h 45 min

Overall bit rate : 1 942 kb/s

Writing application : Lavf58.11.101


Video

ID : 1

Format : AVC

Format/Info : Advanced Video Codec

Format profile : [email protected]

Format settings : 1 Ref Frames

Format settings, CABAC : No

Format settings, Reference : 1 frame

Codec ID : avc1

Codec ID/Info : Advanced Video Coding

Duration : 1 h 45 min

Bit rate : 1 808 kb/s

Width : 1 920 pixels

Height : 1 080 pixels

Display aspect ratio : 16:9

Frame rate mode : Constant

Frame rate : 25.000 FPS

Color space : YUV

Chroma subsampling : 4:2:0

Bit depth : 8 bits

Scan type : Progressive

Bits/(Pixel*Frame) : 0.035

Stream size : 1.34 GiB (93%)

Writing library : x264 core 155 r2901 7d0ff22

Encoding settings : cabac=0 / ref=1 / deblock=1:0:0 / analyse=0x1:0x111 / me=hex / subme=7 / psy=1 / psy_rd=1.00:0.00 / mixed_ref=0 / me_range=16 / chroma_me=1 / trellis=1 / 8x8dct=0 / cqm=0 / deadzone=21,11 / fast_pskip=1 / chroma_qp_offset=-2 / threads=8 / lookahead_threads=1 / sliced_threads=0 / nr=0 / decimate=1 / interlaced=0 / bluray_compat=0 / constrained_intra=0 / bframes=0 / weightp=0 / keyint=250 / keyint_min=25 / scenecut=40 / intra_refresh=0 / rc_lookahead=40 / rc=abr / mbtree=1 / bitrate=1808 / ratetol=1.0 / qcomp=0.60 / qpmin=0 / qpmax=69 / qpstep=4 / ip_ratio=1.40 / aq=1:1.00

Codec configuration box : avcC


Audio

ID : 2

Format : AAC LC

Format/Info : Advanced Audio Codec Low Complexity

Codec ID : mp4a-40-2

Duration : 1 h 45 min

Duration_LastFrame : -14 ms

Bit rate mode : Constant

Bit rate : 128 kb/s

Channel(s) : 2 channels

Channel layout : L R

Sampling rate : 44.1 kHz

Frame rate : 43.066 FPS (1024 SPF)

Compression mode : Lossy

Stream size : 97.1 MiB (7%)

Default : Yes

Alternate group : 1


SCREENSHOTS:



M-TechRidge

Watch Trailer:


M-TechRidge
comment

SONIA SINGH
01-11-2022

Worldfree4u : Download Latest Full HD Movies And Web Series Worldfree4u is a public torrent website best known for its extensive collection of the latest FHD, Hindi, and English movies and web series. Read More: https://trendtoreview.com/worldfree4u/


Leave a Comment:

Validation code:


Can't read the image? click here to refresh.