M-TechRidge Blog

Download Vikram Vedha 2017 720p 1080p Blu-ray HDRip BRrip x264




Change Language:
M-TechRidge

General

Unique ID         : 26322328540472114179380328475384468301 (0x13CD7EFEB829C42DED0229671F6DD34D)

Complete name       : www.MovCr.com-Vikram Vedha (2018) 720p Hindi Dubbed HD x264 AAC 1GB[MovCr].mkv

Format           : Matroska

Format version       : Version 4 / Version 2

File size         : 1 017 MiB

Duration          : 2 h 10 min

Overall bit rate      : 1 092 kb/s

Movie name         : www.MovCr.com

Encoded date        : UTC 2018-06-10 17:38:05

Writing application    : mkvmerge v23.0.0 ('The Bride Said No') 64-bit

Writing library      : libebml v1.3.6 + libmatroska v1.4.9


Video

ID             : 1

Format           : AVC

Format/Info        : Advanced Video Codec

Format profile       : [email protected]

Format settings, CABAC   : Yes

Format settings, ReFrames : 3 frames

Codec ID          : V_MPEG4/ISO/AVC

Duration          : 2 h 10 min

Bit rate          : 964 kb/s

Width           : 1 280 pixels

Height           : 720 pixels

Display aspect ratio    : 16:9

Frame rate mode      : Constant

Frame rate         : 25.000 FPS

Color space        : YUV

Chroma subsampling     : 4:2:0

Bit depth         : 8 bits

Scan type         : Progressive

Bits/(Pixel*Frame)     : 0.042

Stream size        : 898 MiB (88%)

Title           : www.MovCr.com

Default          : Yes

Forced           : No

Color range        : Limited

Color primaries      : BT.709

Transfer characteristics  : BT.709

Matrix coefficients    : BT.709


Audio

ID             : 2

Format           : AAC

Format/Info        : Advanced Audio Codec

Format profile       : LC

Codec ID          : A_AAC

Duration          : 2 h 10 min

Bit rate          : 126 kb/s

Channel(s)         : 2 channels

Channel positions     : Front: L R

Sampling rate       : 44.1 kHz

Frame rate         : 43.066 FPS (1024 spf)

Compression mode      : Lossy

Stream size        : 117 MiB (12%)

Title           : www.MovCr.com

Language          : Hindi

Default          : Yes

Forced           : No


M-TechRidge

Watch Trailer:


M-TechRidge


Leave a Comment:

Validation code:


Can't read the image? click here to refresh.