Asur - Welcome to Your Dark Side (2020) Voot S01

  • 0
  • 193
Asur - Welcome to Your Dark Side (2020) Voot S01 © Asur - Welcome to Your Dark Side (2020) Voot S01
General
Unique ID                                : 265244427087977667443313494647346866324 (0xC78C37EDB81E40EAD3609B8D4404A894)
Complete name                            : ASUR-Welcome.To.Your.Dark.Side.2020.S01E01.The.Dead.Can.Talk.1080p.VOOT.WEB-DL.DD5.1.H.264-R4!D3R.mkv
Format                                   : Matroska
Format version                           : Version 4
File size                                : 2.70 GiB
Duration                                 : 46 min 5 s
Overall bit rate                         : 8 386 kb/s
Frame rate                               : 25.000 FPS
Movie name                               : ASUR-Welcome.To.Your.Dark.Side.2020.S01E01.The.Dead.Can.Talk.1080p.VOOT.WEB-DL.DD5.1.H.264-R4!D3R
Encoded date                             : 2023-05-31 00:09:15 UTC
Writing application                      : mkvmerge v75.0.0 ('Goliath') 64-bit
Writing library                          : libebml v1.4.4 + libmatroska v1.7.1

Video
ID                                       : 1
Format                                   : AVC
Format/Info                              : Advanced Video Codec
Format profile                           : High@L4
Format settings                          : CABAC / 4 Ref Frames
Format settings, CABAC                   : Yes
Format settings, Reference frames        : 4 frames
Codec ID                                 : V_MPEG4/ISO/AVC
Duration                                 : 46 min 5 s
Bit rate                                 : 8 000 kb/s
Width                                    : 1 920 pixels
Height                                   : 1 080 pixels
Display aspect ratio                     : 16:9
Frame rate mode                          : Constant
Frame rate                               : 25.000 FPS
Color space                              : YUV
Chroma subsampling                       : 4:2:0
Bit depth                                : 8 bits
Scan type                                : Progressive
Bits/(Pixel*Frame)                       : 0.154
Stream size                              : 2.58 GiB (95%)
Writing library                          : x264 core 138
Encoding settings                        : cabac=1 / ref=4 / deblock=1:0:0 / analyse=0x3:0x113 / me=hex / subme=7 / psy=1 / psy_rd=1.00:0.00 / mixed_ref=1 / me_range=16 / chroma_me=1 / trellis=1 / 8x8dct=1 / cqm=0 / deadzone=21,11 / fast_pskip=1 / chroma_qp_offset=-2 / threads=4 / lookahead_threads=1 / sliced_threads=0 / nr=0 / decimate=1 / interlaced=0 / bluray_compat=0 / constrained_intra=0 / bframes=3 / b_pyramid=0 / b_adapt=2 / b_bias=0 / direct=1 / weightb=1 / open_gop=0 / weightp=2 / keyint=50 / keyint_min=5 / scenecut=0 / intra_refresh=0 / rc_lookahead=50 / rc=abr / mbtree=1 / bitrate=8000 / ratetol=1.0 / qcomp=0.60 / qpmin=0 / qpmax=69 / qpstep=4 / vbv_maxrate=11200 / vbv_bufsize=16000 / nal_hrd=none / filler=0 / ip_ratio=1.40 / aq=1:1.00
Default                                  : Yes
Forced                                   : No

Audio
ID                                       : 2
Format                                   : AC-3
Format/Info                              : Audio Coding 3
Commercial name                          : Dolby Digital
Codec ID                                 : A_AC3
Duration                                 : 46 min 5 s
Bit rate mode                            : Constant
Bit rate                                 : 384 kb/s
Channel(s)                               : 6 channels
Channel layout                           : L R C LFE Ls Rs
Sampling rate                            : 48.0 kHz
Frame rate                               : 31.250 FPS (1536 SPF)
Compression mode                         : Lossy
Delay relative to video                  : 9 ms
Stream size                              : 127 MiB (5%)
Language                                 : Hindi
Service kind                             : Complete Main
Default                                  : Yes
Forced                                   : No

Text #1
ID                                       : 3
Format                                   : UTF-8
Codec ID                                 : S_TEXT/UTF8
Codec ID/Info                            : UTF-8 Plain Text
Duration                                 : 43 min 19 s
Bit rate                                 : 49 b/s
Frame rate                               : 0.187 FPS
Count of elements                        : 485
Stream size                              : 15.6 KiB (0%)
Language                                 : English
Default                                  : No
Forced                                   : No

Text #2
ID                                       : 4
Format                                   : UTF-8
Codec ID                                 : S_TEXT/UTF8
Codec ID/Info                            : UTF-8 Plain Text
Duration                                 : 43 min 19 s
Bit rate                                 : 92 b/s
Frame rate                               : 0.186 FPS
Count of elements                        : 483
Stream size                              : 29.3 KiB (0%)
Title                                    : Yellow
Language                                 : English
Default                                  : Yes
Forced                                   : No

ReportBy                                 : MediaInfoLib - v23.04
CreatedOn                                : UTC 2023-06-01 20:40:16









Prev Post Hypnotic (2023) Dual Audio (Hi-En)
Next Post Asur (2023) S02 Jio Cinema
Commnets 0
Leave A Comment