Asur (2023) S02 Jio Cinema

  • 0
  • 487
Asur (2023) S02 Jio Cinema © Asur (2023) S02 Jio Cinema

Video
ID : 1
Format : HEVC
Format/Info : High Efficiency Video Coding
Format profile : Main 10@L3.1@Main
Codec ID : V_MPEGH/ISO/HEVC
Duration : 59 min 24 s
Bit rate : 508 kb/s
Width : 1 280 pixels
Height : 640 pixels
Display aspect ratio : 2.000
Frame rate mode : Constant
Frame rate : 25.000 FPS
Color space : YUV
Chroma subsampling : 4:2:0
Bit depth : 10 bits
Bits/(Pixel*Frame) : 0.025
Stream size : 216 MiB (72%)
Title : Encoded By ~ Immortal
Language : Hindi
Default : Yes
Forced : Yes
Color range : Limited
Color primaries : BT.709
Transfer characteristics : BT.709
Matrix coefficients : BT.709

Audio
ID : 2
Format : AAC LC SBR
Format/Info : Advanced Audio Codec Low Complexity with Spectral Band Replication
Commercial name : HE-AAC
Format settings : NBC
Codec ID : A_AAC-5
Duration : 59 min 25 s
Bit rate : 192 kb/s
Channel(s) : 6 channels
Channel layout : C L R Ls Rs LFE
Sampling rate : 48.0 kHz
Frame rate : 23.438 FPS (2048 SPF)
Compression mode : Lossy
Delay relative to video : -105 ms
Stream size : 81.6 MiB (27%)
Title : Hindi AAC 5.1 ~ Immortal
Language : Hindi
Default : Yes
Forced : No

Text
ID : 3
Format : UTF-8
Codec ID : S_TEXT/UTF8
Codec ID/Info : UTF-8 Plain Text
Duration : 54 min 54 s
Bit rate : 49 b/s
Frame rate : 0.193 FPS
Count of elements : 636
Stream size : 20.0 KiB (0%)
Title : English
Language : English
Default : Yes
Forced : Yes






















Prev Post Asur - Welcome to Your Dark Side (2020) Voot S01
Next Post Operation Fortune Ruse de Guerre (2023) Dual Audio (Hi-En)
Commnets 0
Leave A Comment