Kisi Ka Bhai Kisi Ki Jaan (2023) Dual Audio (Hi-En)

  • 0
  • 489
Kisi Ka Bhai Kisi Ki Jaan (2023) Dual Audio (Hi-En) © Kisi Ka Bhai Kisi Ki Jaan (2023) Dual Audio (Hi-En)

Bhaijaan, a self-defense trainer lives happily as a bachelor with his three brothers Moh, Ishq and Luv and uses violence to settle disputes. When his brothers, who’ve already found partners, come together to fix a match for him, Bhagya Lakshmi, Bhaijaan decides to mend his ways for his lover's sake. All hell breaks loose when he learns about Bhagya's family facing threats from their haunting past.

Video
ID : 1
Format : HEVC
Format/Info : High Efficiency Video Coding
Format profile : Main 10@L3.1@Main
Codec ID : V_MPEGH/ISO/HEVC
Duration : 2 h 18 min
Bit rate : 1 667 kb/s
Width : 1 280 pixels
Height : 534 pixels
Display aspect ratio : 2.40:1
Frame rate mode : Constant
Frame rate : 25.000 FPS
Color space : YUV
Chroma subsampling : 4:2:0 (Type 0)
Bit depth : 10 bits
Bits/(Pixel*Frame) : 0.098
Stream size : 1.61 GiB (90%)
Title : Encoded By ~ Immortal
Language : Hindi
Default : Yes
Forced : Yes
Color range : Limited
Color primaries : BT.709
Transfer characteristics : BT.709
Matrix coefficients : BT.709

Audio
ID : 2
Format : AAC LC SBR
Format/Info : Advanced Audio Codec Low Complexity with Spectral Band Replication
Commercial name : HE-AAC
Format settings : NBC
Codec ID : A_AAC-5
Duration : 2 h 18 min
Bit rate : 192 kb/s
Channel(s) : 6 channels
Channel layout : C L R Ls Rs LFE
Sampling rate : 48.0 kHz
Frame rate : 23.438 FPS (2048 SPF)
Compression mode : Lossy
Delay relative to video : -21 ms
Stream size : 190 MiB (10%)
Title : Hindi AAC 5.1 ~ Immortal
Language : Hindi
Default : Yes
Forced : Yes

Menu
00:00:09.000 : en:Intro Credit Start
00:01:26.000 : en:Intro Credit End
02:14:42.000 : en:End Credit Start



















Prev Post A Man Called Otto (2023) Dual Audio (Hi-En)
Next Post Sirf Ek Bandaa Kaafi Hai (2023) Hindi
Commnets 0
Leave A Comment