An Action Hero 2022 Hindi

  • 0
  • 402
An Action Hero 2022 Hindi © An Action Hero 2022 Hindi

Youth Icon. Superstar. Action Hero. At the age of just 30, Maanav was at the peak of his career when he got caught up in an accident while filming in Mandothi village in Haryana. Maanav, who was once a household name, is now living in hiding.

Meadia Info



Format                 : Matroska

Format version             : Version 4

File size                : 1.58 GiB

Duration                : 2 h 8 min

Overall bit rate            : 1 760 kb/s

Encoded date              : UTC 2023-01-26 19:43:35

Writing library             : Lavf58.76.100

ErrorDetectionType           : Per level 1


Video

ID                   : 1

Format                 : AVC

Format/Info               : Advanced Video Codec

Format profile             : Main@L4

Format settings             : CABAC / 4 Ref Frames

Format settings, CABAC         : Yes

Format settings, Reference frames    : 4 frames

Codec ID                : V_MPEG4/ISO/AVC

Duration                : 2 h 8 min

Bit rate                : 1 501 kb/s

Width                  : 1 920 pixels

Height                 : 796 pixels

Display aspect ratio          : 2.40:1

Frame rate mode             : Constant

Frame rate               : 24.000 FPS

Color space               : YUV

Chroma subsampling           : 4:2:0

Bit depth                : 8 bits

Scan type                : Progressive

Bits/(Pixel*Frame)           : 0.041

Stream size               : 1.35 GiB (85%)

Writing library             : x264 core 164 r3065 ae03d92

Default                 : Yes

Forced                 : No

Color range               : Limited

Color primaries             : BT.709

Transfer characteristics        : BT.709

Matrix coefficients           : BT.709


Audio

ID                   : 2

Format                 : AC-3

Format/Info               : Audio Coding 3

Commercial name             : Dolby Digital

Codec ID                : A_AC3

Duration                : 2 h 8 min

Bit rate mode              : Constant

Bit rate                : 224 kb/s

Channel(s)               : 6 channels

Channel layout             : L R C LFE Ls Rs

Sampling rate              : 48.0 kHz

Frame rate               : 31.250 FPS (1536 SPF)

Compression mode            : Lossy

Delay relative to video         : -5 ms

Stream size               : 206 MiB (13%)

Title                  : themoviesboss

Language                : Hindi

Service kind              : Complete Main

Default                 : Yes

Forced                 : No


Text #1

ID                   : 3

Format                 : ASS

Codec ID                : S_TEXT/ASS

Codec ID/Info              : Advanced Sub Station Alpha

Duration                : 1 h 59 min

Compression mode            : Lossless

Title                  : themoviesboss

Language                : English

Default                 : No

Forced                 : No


Text #2

ID                   : 4

Format                 : ASS

Codec ID                : S_TEXT/ASS

Codec ID/Info              : Advanced Sub Station Alpha

Duration                : 1 h 59 min

Compression mode            : Lossless

Title                  : themoviesboss

Language                : Hindi

Default                 : No

Forced                 : No


Text #3

ID                   : 5

Format                 : ASS

Codec ID                : S_TEXT/ASS

Codec ID/Info              : Advanced Sub Station Alpha

Duration                : 1 h 11 min

Compression mode            : Lossless

Title                  : themoviesboss

Language                : Hindi

Default                 : No

Forced                 : No



Screenshots:





Prev Post Freddy 2022 hindi
Next Post India Lockdown (2022) Zee 5 Hindi 720p WEBRip x264 AAC ESub
Commnets 0
Leave A Comment