Dragon Ball Super Super Hero 2022 ENGLISH

  • 0
  • 997
Dragon Ball Super Super Hero 2022 ENGLISH © Dragon Ball Super Super Hero 2022 ENGLISH

The Red Ribbon Army, an evil organization that was once destroyed by Goku in the past, has been reformed by a group of people who have created new and mightier Androids, Gamma 1 and Gamma 2, and seek vengeance against Goku and his family.


Audio

ID                   : 2

Format                 : AAC LC

Format/Info               : Advanced Audio Codec Low Complexity

Codec ID                : A_AAC-2

Duration                : 1 h 38 min

Bit rate                : 192 kb/s

Channel(s)               : 2 channels

Channel layout             : L R

Sampling rate              : 48.0 kHz

Frame rate               : 46.875 FPS (1024 SPF)

Compression mode            : Lossy

Stream size               : 134 MiB (9%)



Text

ID                   : 3

Format                 : ASS

Codec ID                : S_TEXT/ASS

Codec ID/Info              : Advanced Sub Station Alpha

Duration                : 1 h 38 min

Bit rate                : 93 b/s

Count of elements            : 1197

Compression mode            : Lossless

Stream size               : 67.8 KiB (0%)

Title                  : english

Language                : English

Default                 : Yes

Forced                 : Yes


Screens:



Prev Post Top Gun Maverick (2022) Dual Audio En-Hi
Next Post Liger (2022) Hindi Dubbed
Commnets 0
Leave A Comment