Bumblebee (2018) Dual Audio (Hi-En)

  • 0
  • 567
Bumblebee (2018) Dual Audio (Hi-En) © Bumblebee (2018) Dual Audio (Hi-En)

On the run in the year 1987, Bumblebee finds refuge in a junkyard in a small Californian beach town. Charlie, on the cusp of turning 18 and trying to find her place in the world, discovers Bumblebee, battle-scarred and broken. When Charlie revives him, she quickly learns this is no ordinary yellow VW bug.

General
Format : Matroska
Format version : Version 4
File size : 1.68 GiB
Duration : 1 h 50 min
Overall bit rate : 2 171 kb/s
Movie name : www.HDFilmBoss.cc
Encoded date : UTC 2019-01-17 15:59:14
Writing application : mkvmerge v30.1.0 ('Forever And More') 64-bit
Writing library : libebml v1.3.6 + libmatroska v1.4.9

Video
ID : 1
Format : AVC
Format/Info : Advanced Video Codec
Format profile : Baseline@L3.1
Format settings : 1 Ref Frames
Format settings, CABAC : No
Format settings, RefFrames : 1 frame
Codec ID : V_MPEG4/ISO/AVC
Duration : 1 h 50 min
Bit rate : 2 041 kb/s
Width : 1 280 pixels
Height : 720 pixels
Display aspect ratio : 16:9
Frame rate mode : Constant
Frame rate : 25.000 FPS
Color space : YUV
Chroma subsampling : 4:2:0
Bit depth : 8 bits
Scan type : Progressive
Bits/(Pixel*Frame) : 0.089
Stream size : 1.58 GiB (94%)
Title : www.1337xHD.Com
Writing library : x264 core 155 r2901 7d0ff22
Default : Yes
Forced : No

Audio
ID : 2
Format : MPEG Audio
Format version : Version 1
Format profile : Layer 3
Format settings : Joint stereo / MS Stereo
Codec ID : A_MPEG/L3
Codec ID/Hint : MP3
Duration : 1 h 50 min
Bit rate mode : Constant
Bit rate : 128 kb/s
Channel(s) : 2 channels
Sampling rate : 44.1 kHz
Frame rate : 38.281 FPS (1152 SPF)
Compression mode : Lossy
Delay relative to video : -80 ms
Stream size : 101 MiB (6%)
Title : www.1337xHD.Com
Writing library : LAME3.99
Default : Yes
Forced : No

Prev Post Transformers The Last Knight (2017) Dual Audio (Hi-En)
Next Post Mission: Impossible (1996) Dual Audio (En-Hi)
Commnets 0
Leave A Comment